Details for this torrent 


Il Giovane Favoloso (2014).DVDrip.XviD - Italian English.Ac3.5.1
Type:
Video > Movies
Files:
4
Size:
1.47 GiB (1576235517 Bytes)
Spoken language(s):
Italian
Texted language(s):
English
Uploaded:
2015-07-17 17:00:21 GMT
By:
robbyrs4 Trusted
Seeders:
11
Leechers:
3
Comments
0  

Info Hash:
62D71A8D4948A1602582936ADF7CE94123786CA4




(Problems with magnets links are fixed by upgrading your torrent client!)
Il Giovane Favoloso (2014).DVDrip.XviD - Italian English.Ac3.5.1.Sub.Ita.Eng.MIRCrew

[center]

[color=red][b][img]http://s19.postimg.org/w9ws99nmb/banner_mircrew_original_2.png[/img]

[u]NO FOUND ONLY ORIGINAL RELEASE[/u]

SUBTITLE ENGLISH INSIDE

Il Giovane Favoloso (2014)

[img]http://i.imgur.com/GRVFqaS.png[/img]


[URL=http://www.imdb.com/title/tt3152602/][IMG]http://www.userlogos.org/files/logos/Sucka/imdb_new.png[/IMG][/URL]  

[img]http://s19.postimg.org/vz5tzn42b/1_scheda.png[/img]

Lingua originale 	Italiano
Paese di produzione 	Italia
Anno 	2014
Durata 	137 min
Rapporto 	1.85:1
Genere 	biografico, storico
Regia 	Mario Martone
Sceneggiatura 	Mario Martone
Ippolita Di Majo
Produttore 	Carlo Degli Esposti
Nicola Serra
Produttore esecutivo 	Patrizia Massa
Casa di produzione 	Palomar
Rai Cinema
Distribuzione (Italia) 	01 Distribution
Fotografia 	Renato Berta
Montaggio 	Jacopo Quadri
Musiche 	Sascha Ring
Scenografia 	Giancarlo Muselli
Costumi 	Ursula Patzak
Trucco 	Maurizio Silvi

[img]http://s19.postimg.org/q8fnlww2b/1_cast.png[/img]


    Elio Germano: Giacomo Leopardi
    Michele Riondino: Antonio Ranieri
    Massimo Popolizio: Monaldo Leopardi
    Anna Mouglalis: Fanny Targioni Tozzetti
    Valerio Binasco: Pietro Giordani
    Paolo Graziosi: Carlo Antici
    Iaia Forte: signora Rosa
    Sandro Lombardi: don Vincenzo
    Raffaella Giordano: Adelaide Antici
    Edoardo Natoli: Carlo Leopardi
    Isabella Ragonese: Paolina Leopardi
    Federica De Cola: Paolina Ranieri
    Giorgia Salari: Maddalena Pelzet
    Gloria Ghergo: Teresa Fattorini ("Silvia")
    Vanni Leopardi: cocchiere

   
[img]http://s19.postimg.org/okgi79i6r/1_trama.png[/img]

Giacomo Leopardi è un bambino di straordinaria intelligenza che cresce nella casa-biblioteca di Recanati assieme ai fratelli Carlo e Paolina, nello Stato Pontificio. Ha un rapporto difficile con il padre Monaldo, nobile autoritario dai modi rigidi e severi. Insofferente alle ristrettezze di un ambiente così retrivo, il ragazzo vuole allontanarsi dalle mura familiari, desideroso di condividere il mondo intellettuale e reale dei suoi amici letterati (in particolare con Pietro Giordani) con i quali si tiene in contatto mediante una fitta corrispondenza epistolare.....

[img]http://s19.postimg.org/fzn6g380j/1_story.png[/img]

Based upon the short but fruitful life of illness-racked Italian poet and philosopher Giacomo Leopardi. ...............


[url=http://postimg.org/image/rrx3qr29h/][img]http://s18.postimg.org/rrx3qr29h/vlcsnap_2015_07_17_16h49m30s76.jpg[/img][/url][url=http://postimg.org/image/sgmzjcrgv/][img]http://s3.postimg.org/sgmzjcrgv/vlcsnap_2015_07_17_16h49m35s145.jpg[/img][/url][url=http://postimg.org/image/7l0p83v9r/][img]http://s3.postimg.org/7l0p83v9r/vlcsnap_2015_07_17_16h50m00s125.jpg[/img][/url]

[IMG]http://img153.imageshack.us/img153/3158/restateinseedblood.gif[/img]


[img]http://imgur.com/lvhU6.gif[/img]


[img]http://s19.postimg.org/a2jaz9qvn/1_dati.png[/img]


[spoiler]
General
Complete name                            : Il Giovane Favoloso (2014).ita.sub.ita.eng.MIRCrewIl Giovane Favoloso (2014).ita.sub.ita.eng.MIRCrew.avi
Format                                   : AVI
Format/Info                              : Audio Video Interleave
File size                                : 1.46 GiB
Duration                                 : 2h 17mn
Overall bit rate                         : 1 513 Kbps
Writing application                      : VirtualDubMod 1.5.4.1 (build 2178/release)
Writing library                          : VirtualDubMod build 2178/release

Video
ID                                       : 0
Format                                   : MPEG-4 Visual
Format profile                           : Advanced [email protected]
Format settings, BVOP                    : 1
Format settings, QPel                    : No
Format settings, GMC                     : No warppoints
Format settings, Matrix                  : Custom
Codec ID                                 : XVID
Codec ID/Hint                            : XviD
Duration                                 : 2h 17mn
Bit rate                                 : 1 058 Kbps
Width                                    : 720 pixels
Height                                   : 384 pixels
Display aspect ratio                     : 1.875
Frame rate                               : 25.000 fps
Color space                              : YUV
Chroma subsampling                       : 4:2:0
Bit depth                                : 8 bits
Scan type                                : Progressive
Compression mode                         : Lossy
Bits/(Pixel*Frame)                       : 0.153
Stream size                              : 1.02 GiB (70%)
Writing library                          : XviD 64

Audio
ID                                       : 1
Format                                   : AC-3
Format/Info                              : Audio Coding 3
Mode extension                           : CM (complete main)
Codec ID                                 : 2000
Duration                                 : 2h 17mn
Bit rate mode                            : Constant
Bit rate                                 : 448 Kbps
Channel(s)                               : 6 channels
Channel positions                        : Front: L C R, Side: L R, LFE
Sampling rate                            : 48.0 KHz
Bit depth                                : 16 bits
Compression mode                         : Lossy
Delay relative to video                  : 40ms
Stream size                              : 442 MiB (30%)
Alignment                                : Split accross interleaves
Interleave, duration                     : 96 ms (2.40 video frames)
Interleave, preload duration             : 96 ms
Language                                 : Italian



[/spoiler]

[/color][/b][/center]